VibesmanFixingvideo, ffmpex, record video$20-501 bids$10 average bid4th of February 2011

Fix video processing.

Like a few I have had problems getting cronjobs to work correctly. I did manage to ficx this but I now get the following message sent via email. If you probably familiar with this messagel if you are able to fix.

 

FFmpeg version 0.6, Copyright (c) 2000-2010 the FFmpeg developers built on Aug 31 2010 07:42:03 with gcc 4.4.1 configuration: --enable-libmp3lame --enable-libxvid --enable-libx264 --enable-gpl --enable-libvorbis --enable-libogg --enable-libtheora --enable-liba52 --enable-libopencore-amrnb --enable-libopencore-amrwb --enable-version3 --enable-libfaad --enable-libfaac --enable-pthreads --disable-shared --enable-static --enable-avfilter --enable-nonfree --enable-swscale --disable-ffplay --disable-ffserver --extra-libs='-static -L/usr/lib -L/home/rayz/ffmpeg_opt -L/home/rayz/ffmpeg_opt/lib' --extra-cflags='-static -I/home/rayz/ffmpeg_opt/include' libavutil 50.15. 1 / 50.15. 1 libavcodec 52.72. 2 / 52.72. 2 libavformat 52.64. 2 / 52.64. 2 libavdevice 52. 2. 0 / 52. 2. 0 libavfilter 1.19. 0 / 1.19. 0 libswscale 0.11. 0 / 0.11. 0 [flv @ 0x9fc9ae0]Could not find codec parameters (Audio: 0x0000, 0 channels) [flv @ 0x9fc9ae0]Estimating duration from bitrate, this may be inaccurate Seems stream 0 codec frame rate differs from container frame rate: 1000.00 (1000/1) -> 12.00 (12/1) Input #0, flv, from '/path/to/ wwwroot/flash/modules/video/files/10.flv': Metadata: audiocodecid : -1 duration : 0 videocodecid : -1 canSeekToEnd : true Duration: 00:00:03.32, start: 0.000000, bitrate: N/A Stream #0.0: Video: flv, yuv420p, 320x180, 12 tbr, 1k tbn, 1k tbc Stream #0.1: Audio: 0x0000, 0 channels Output #0, image2, to '/path/to/ wwwroot/flash/modules/video/files/1296837901.jpg': Metadata: encoder : Lavf52.64.2 Stream #0.0: Video: mjpeg, yuvj420p, 320x180, q=2-31, 200 kb/s, 90k tbn, 12 tbc Stream mapping: Stream #0.0 -> #0.0 Press [q] to stop encoding frame= 1 fps= 0 q=0.0 Lsize= -0kB time=0.08 bitrate= -2.1kbits/s video:6kB audio:0kB global headers:0kB muxing overhead -100.334093% FFmpeg version 0.6, Copyright (c) 2000-2010 the FFmpeg developers built on Aug 31 2010 07:42:03 with gcc 4.4.1 configuration: --enable-libmp3lame --enable-libxvid --enable-libx264 --enable-gpl --enable-libvorbis --enable-libogg --enable-libtheora --enable-liba52 --enable-libopencore-amrnb --enable-libopencore-amrwb --enable-version3 --enable-libfaad --enable-libfaac --enable-pthreads --disable-shared --enable-static --enable-avfilter --enable-nonfree --enable-swscale --disable-ffplay --disable-ffserver --extra-libs='-static -L/usr/lib -L/home/rayz/ffmpeg_opt -L/home/rayz/ffmpeg_opt/lib' --extra-cflags='-static -I/home/rayz/ffmpeg_opt/include' libavutil 50.15. 1 / 50.15. 1 libavcodec 52.72. 2 / 52.72. 2 libavformat 52.64. 2 / 52.64. 2 libavdevice 52. 2. 0 / 52. 2. 0 libavfilter 1.19. 0 / 1.19. 0 libswscale 0.11. 0 / 0.11. 0 [flv @ 0xa503ae0]Could not find codec parameters (Audio: 0x0000, 0 channels) [flv @ 0xa503ae0]Estimating duration from bitrate, this may be inaccurate Seems stream 0 codec frame rate differs from container frame rate: 1000.00 (1000/1) -> 12.00 (12/1) Input #0, flv, from '/path/to/ wwwroot/flash/modules/video/files/10.flv': Metadata: audiocodecid : -1 duration : 0 videocodecid : -1 canSeekToEnd : true Duration: 00:00:03.32, start: 0.000000, bitrate: N/A Stream #0.0: Video: flv, yuv420p, 320x180, 12 tbr, 1k tbn, 1k tbc Stream #0.1: Audio: 0x0000, 0 channels Output #0, mp4, to '/path/to/ wwwroot/flash/modules/video/files/10.mp4': Stream #0.0: Video: mpeg4, yuv420p, 176x144, q=2-31, 512 kb/s, 90k tbn, 25 tbc Stream #0.1: Audio: libfaac, 44100 Hz, 1 channels, s16, 128 kb/s Stream mapping: Stream #0.0 -> #0.0 Stream #0.1 -> #0.1 Decoder (codec id 0) not found for input stream #0.1

 
Bids
mrpowless
mrpowless7th of February 2011bid: $10  timeframe: 1 daysPermalink
 
I charge 10$ per fix. references: http://www.boonex.com/unity/extensions/entry/Mrpowless_Personal_Touch
 
 
Comments
·Oldest
·Top
Please login to post a comment.
No comments so far.
 
 
Below is the legacy version of the Boonex site, maintained for Dolphin.Pro 7.x support.
The new Dolphin solution is powered by UNA Community Management System.
PET:0.049330949783325